<?xml version="1.0" standalone="no"?>
<!DOCTYPE svg PUBLIC "-//W3C//DTD SVG 1.1//EN" "http://www.w3.org/Graphics/SVG/1.1/DTD/svg11.dtd" >
<svg xmlns="http://www.w3.org/2000/svg">
<metadata>Generated by IcoMoon</metadata>
<defs>
<font id="icomoon" horiz-adv-x="1024">
<font-face units-per-em="1024" ascent="960" descent="-64" />
<missing-glyph horiz-adv-x="1024" />
<glyph unicode="&#x20;" horiz-adv-x="512" d="" />
<glyph unicode="&#xe900;" glyph-name="arrow-left" d="M532.041 169.374c-12.497 12.497-12.497 32.755 0 45.252l201.37 201.374h-520.077c-17.673 0-32 14.327-32 32s14.327 32 32 32h520.077l-201.37 201.373c-12.497 12.497-12.497 32.758 0 45.255s32.755 12.497 45.252 0l256-256.001c12.497-12.497 12.497-32.755 0-45.252l-256-256c-12.497-12.497-32.755-12.497-45.252 0z" />
<glyph unicode="&#xe901;" glyph-name="chevron-down" d="M512 277.333c11.315 0 22.17 4.497 30.17 12.497l256 256c16.661 16.663 16.661 43.677 0 60.34s-43.678 16.662-60.339 0l-225.83-225.831-225.83 225.831c-16.663 16.662-43.677 16.662-60.34 0s-16.662-43.677 0-60.34l256-256c8-8 18.854-12.497 30.17-12.497z" />
<glyph unicode="&#xe902;" glyph-name="clone" d="M476.224 832c-22.494 0.001-41.899 0.001-57.879-1.304-16.868-1.378-33.645-4.421-49.789-12.647-24.085-12.272-43.666-31.853-55.938-55.938-8.226-16.144-11.269-32.922-12.647-49.789-1.17-14.327-1.291-31.403-1.303-50.989-19.586-0.012-36.662-0.133-50.989-1.303-16.868-1.378-33.645-4.421-49.789-12.647-24.085-12.272-43.666-31.853-55.938-55.938-8.226-16.144-11.269-32.922-12.647-49.789-1.306-15.98-1.305-35.385-1.304-57.879v-242.219c-0.001-22.494-0.001-41.899 1.304-57.877 1.378-16.87 4.421-33.647 12.647-49.792 12.272-24.085 31.853-43.665 55.938-55.936 16.144-8.226 32.922-11.268 49.789-12.646 15.982-1.306 35.385-1.306 57.876-1.306h242.225c22.49 0 41.894 0 57.873 1.306 16.87 1.378 33.647 4.42 49.792 12.646 24.085 12.271 43.665 31.851 55.936 55.936 8.226 16.145 11.268 32.922 12.646 49.792 1.173 14.327 1.293 31.403 1.306 50.987 19.584 0.013 36.659 0.132 50.987 1.306 16.87 1.378 33.647 4.42 49.792 12.646 24.085 12.271 43.665 31.851 55.936 55.936 8.226 16.145 11.268 32.922 12.646 49.792 1.306 15.979 1.306 35.383 1.306 57.873v242.225c0 22.491 0 41.894-1.306 57.876-1.378 16.868-4.42 33.645-12.646 49.789-12.271 24.085-31.851 43.666-55.936 55.938-16.145 8.226-32.922 11.269-49.792 12.647-15.979 1.306-35.383 1.305-57.877 1.304h-242.219zM298.667 575.997v-163.773c-0.001-22.494-0.001-41.899 1.304-57.877 1.378-16.87 4.421-33.647 12.647-49.792 12.272-24.085 31.853-43.665 55.938-55.936 16.144-8.226 32.922-11.268 49.789-12.646 15.984-1.306 35.385-1.306 57.879-1.306h163.772c-0.017-19.844-0.149-33.408-1.015-44.041-0.947-11.588-2.556-15.885-3.631-17.997-4.092-8.030-10.615-14.554-18.645-18.645-2.112-1.075-6.409-2.684-17.997-3.631-12.092-0.986-27.972-1.020-52.574-1.020h-238.933c-24.599 0-40.483 0.034-52.572 1.020-11.591 0.947-15.888 2.556-17.998 3.631-8.028 4.092-14.555 10.615-18.646 18.645-1.075 2.112-2.683 6.409-3.63 17.997-0.988 12.092-1.021 27.972-1.021 52.574v238.933c0 24.602 0.033 40.482 1.021 52.572 0.947 11.591 2.554 15.888 3.63 17.998 4.090 8.028 10.618 14.555 18.646 18.646 2.11 1.075 6.407 2.683 17.998 3.63 10.63 0.869 24.195 0.999 44.039 1.018zM477.867 320c-24.602 0-40.482 0.034-52.572 1.020-11.591 0.947-15.888 2.556-17.998 3.631-8.028 4.092-14.555 10.615-18.646 18.645-1.075 2.112-2.683 6.409-3.63 17.997-0.988 12.092-1.021 27.972-1.021 52.574v238.933c0 24.599 0.033 40.483 1.021 52.572 0.947 11.591 2.554 15.888 3.63 17.998 4.090 8.028 10.618 14.555 18.646 18.646 2.11 1.075 6.407 2.683 17.998 3.63 12.090 0.988 27.971 1.021 52.572 1.021h238.933c24.602 0 40.482-0.033 52.574-1.021 11.588-0.947 15.885-2.554 17.997-3.63 8.030-4.090 14.554-10.618 18.645-18.646 1.075-2.11 2.684-6.407 3.631-17.998 0.986-12.089 1.020-27.973 1.020-52.572v-238.933c0-24.602-0.034-40.482-1.020-52.574-0.947-11.588-2.556-15.885-3.631-17.997-4.092-8.030-10.615-14.554-18.645-18.645-2.112-1.075-6.409-2.684-17.997-3.631-12.092-0.986-27.972-1.020-52.574-1.020h-238.933z" />
<glyph unicode="&#xe903;" glyph-name="eye" d="M138.553 448c53.169-155.174 200.332-266.667 373.456-266.667s320.286 111.492 373.457 266.667c-53.171 155.174-200.333 266.667-373.457 266.667s-320.286-111.492-373.456-266.667zM74.345 457.591c58.438 186.055 232.241 321.075 437.663 321.075s379.226-135.022 437.662-321.079c1.963-6.242 1.963-12.937 0-19.179-58.436-186.057-232.239-321.075-437.662-321.075s-379.226 135.023-437.663 321.079c-1.961 6.242-1.961 12.937 0 19.179zM511.991 544c-53.022 0-96.002-42.982-96.002-96s42.98-96 96.002-96c53.018 0 96 42.982 96 96s-42.982 96-96 96zM351.99 448c0 88.366 71.634 160 160.002 160 88.363 0 160-71.634 160-160s-71.637-160-160-160c-88.367 0-160.002 71.633-160.002 160z" />
<glyph unicode="&#xe904;" glyph-name="facebook" d="M768 448c0 140.8-115.2 256-256 256s-256-115.2-256-256c0-128 92.8-233.6 214.4-252.8v179.2h-64v73.6h64v57.6c0 64 38.4 99.2 96 99.2 28.8 0 57.6-6.4 57.6-6.4v-64h-32c-32 0-41.6-19.2-41.6-38.4v-48h70.4l-12.8-73.6h-60.8v-182.4c128 19.2 220.8 128 220.8 256z" />
<glyph unicode="&#xe905;" glyph-name="house-floor" d="M459.315 834.418c34.082 11.875 71.177 11.878 105.263 0.008 21.581-7.516 39.77-20.93 58.295-38.299 18.057-16.927 38.583-39.732 64.124-68.105l147.371-163.72c0.060-0.066 0.119-0.133 0.179-0.199l85.235-94.692c11.827-13.137 10.761-33.37-2.372-45.193-13.137-11.827-33.37-10.761-45.193 2.372l-29.551 32.828v-191.987c0-34.684 0-62.656-1.852-85.308-1.903-23.322-5.931-43.806-15.586-62.763-15.339-30.106-39.817-54.583-69.922-69.922-18.953-9.655-39.441-13.683-62.763-15.586-22.652-1.852-50.624-1.852-85.308-1.852h-190.473c-34.681 0-62.653 0-85.305 1.852-23.323 1.903-43.809 5.931-62.763 15.586-30.106 15.339-54.583 39.817-69.923 69.922-9.657 18.957-13.683 39.441-15.589 62.763-1.851 22.652-1.85 50.628-1.85 85.308v192l-29.547-32.836c-11.822-13.137-32.055-14.204-45.192-2.381s-14.203 32.055-2.382 45.193l85.237 94.721c0.059 0.066 0.119 0.132 0.179 0.198l147.282 163.671c25.535 28.377 46.058 51.184 64.112 68.114 18.525 17.372 36.712 30.788 58.292 38.307zM245.334 530.551v-261.751c0-36.373 0.025-61.726 1.638-81.463 1.582-19.366 4.532-30.494 8.826-38.921 9.204-18.061 23.89-32.751 41.954-41.954 8.427-4.292 19.553-7.241 38.919-8.823 15.188-1.242 33.7-1.545 57.998-1.617v223.979c0 17.673 14.327 32 32 32h170.667c17.673 0 32-14.327 32-32v-223.979c24.299 0.073 42.812 0.375 57.997 1.617 19.366 1.583 30.494 4.531 38.921 8.823 18.061 9.203 32.751 23.893 41.954 41.954 4.292 8.427 7.241 19.554 8.823 38.921 1.613 19.738 1.638 45.090 1.638 81.463v261.722l-138.27 153.607c-26.731 29.699-45.453 50.46-61.295 65.307-15.595 14.619-26.108 21.254-35.571 24.55-20.45 7.122-42.709 7.121-63.159-0.005-9.463-3.297-19.977-9.934-35.571-24.555-15.834-14.85-34.556-35.614-61.284-65.316l-138.182-153.558zM565.333 96v192h-106.667v-192h106.667z" />
<glyph unicode="&#xe906;" glyph-name="instagram" d="M511.996 665.6c70.4 0 80 0 108.8 0 25.6 0 38.4-6.4 48-9.6 12.8-6.4 22.4-9.6 32-19.2s16-19.2 19.2-32c3.2-9.6 6.4-22.4 9.6-48 0-28.8 0-35.2 0-108.8s0-80 0-108.8c0-25.6-6.4-38.4-9.6-48-6.4-12.8-9.6-22.4-19.2-32s-19.2-16-32-19.2c-9.6-3.2-22.4-6.4-48-9.6-28.8 0-35.2 0-108.8 0s-80 0-108.8 0c-25.6 0-38.4 6.4-48 9.6-12.8 6.4-22.4 9.6-32 19.2s-16 19.2-19.2 32c-3.2 9.6-6.4 22.4-9.6 48 0 28.8 0 35.2 0 108.8s0 80 0 108.8c0 25.6 6.4 38.4 9.6 48 6.4 12.8 9.6 22.4 19.2 32s19.2 16 32 19.2c9.6 3.2 22.4 6.4 48 9.6 28.8 0 38.4 0 108.8 0zM511.996 713.6c-73.6 0-80 0-108.8 0s-48-6.4-64-12.8c-16-6.4-32-16-48-32s-22.4-28.8-32-48c-6.4-16-9.6-35.2-12.8-64 0-28.8 0-38.4 0-108.8 0-73.6 0-80 0-108.8s6.4-48 12.8-64c6.4-16 16-32 32-48s28.8-22.4 48-32c16-6.4 35.2-9.6 64-12.8 28.8 0 38.4 0 108.8 0s80 0 108.8 0c28.8 0 48 6.4 64 12.8s32 16 48 32c16 16 22.4 28.8 32 48 6.4 16 9.6 35.2 12.8 64 0 28.8 0 38.4 0 108.8s0 80 0 108.8c0 28.8-6.4 48-12.8 64s-16 32-32 48c-16 16-28.8 22.4-48 32-16 6.4-35.2 9.6-64 12.8-28.8 0-35.2 0-108.8 0zM511.996 585.6c-76.8 0-137.6-60.8-137.6-137.6s60.8-137.6 137.6-137.6c76.8 0 137.6 60.8 137.6 137.6s-60.8 137.6-137.6 137.6zM511.996 358.4c-48 0-89.6 38.4-89.6 89.6 0 48 38.4 89.6 89.6 89.6 48 0 89.6-38.4 89.6-89.6 0-48-41.6-89.6-89.6-89.6zM652.796 556.8c17.673 0 32 14.327 32 32s-14.327 32-32 32c-17.673 0-32-14.327-32-32s14.327-32 32-32z" />
<glyph unicode="&#xe907;" glyph-name="mail" d="M96 576c0 111.93 90.737 202.667 202.667 202.667h426.667c111.932 0 202.667-90.737 202.667-202.667v-256c0-111.932-90.735-202.667-202.667-202.667h-426.667c-111.93 0-202.667 90.735-202.667 202.667v256zM298.667 714.667c-76.584 0-138.667-62.083-138.667-138.667v-256c0-76.582 62.083-138.667 138.667-138.667h426.667c76.582 0 138.667 62.084 138.667 138.667v256c0 76.584-62.084 138.667-138.667 138.667h-426.667zM145.068 680.533c10.604 14.138 30.662 17.004 44.8 6.4l322.132-241.6 322.133 241.6c14.14 10.604 34.197 7.738 44.8-6.4 10.607-14.138 7.74-34.196-6.4-44.8l-341.333-256c-11.375-8.533-27.021-8.533-38.4 0l-341.332 256c-14.138 10.604-17.004 30.662-6.4 44.8z" />
<glyph unicode="&#xe908;" glyph-name="phone" d="M160.007 704.871c0.465 29.053 24.162 52.462 53.327 52.462h149.002l67.165-167.915-83.297-49.979c-14.281-8.568-19.602-26.659-12.236-41.592 48.81-98.97 128.911-179.072 227.881-227.878 14.933-7.369 33.024-2.048 41.591 12.233l49.98 83.298 167.915-67.166v-149.001c0-29.163-23.407-52.86-52.463-53.325-327.415 20.429-588.433 281.446-608.864 608.863zM213.333 821.333c-64.801 0-117.333-52.532-117.333-117.333 0-0.648 0.020-1.295 0.059-1.941 21.912-360.564 309.435-648.090 670-669.999 0.649-0.038 1.293-0.060 1.941-0.060 64.802 0 117.333 52.531 117.333 117.333v170.667c0 13.086-7.966 24.853-20.117 29.713l-213.333 85.333c-14.579 5.833-31.241 0.218-39.322-13.248l-48.329-80.546c-65.937 38.229-120.751 93.043-158.981 158.98l80.547 48.328c13.466 8.081 19.081 24.742 13.248 39.324l-85.335 213.333c-4.86 12.149-16.626 20.116-29.711 20.116h-170.667z" />
<glyph unicode="&#xe909;" glyph-name="quote-icon" d="M429.952 815.593v-123.037c-64.277 0-124.116-20.69-179.491-62.070-55.401-41.354-83.075-90.769-83.075-148.189 0-34.189 13.653-51.281 41.039-51.281 6.144 0 18.458 2.389 36.916 7.168 19.141 4.122 34.527 6.17 46.159 6.17 37.599 0 72.992-15.228 106.154-45.658 33.164-30.434 49.731-72.311 49.731-125.636 0-51.964-17.092-96.572-51.28-133.833-34.186-37.282-81.027-55.923-140.524-55.923-71.102 0-128.525 26.859-172.294 80.529-43.77 53.666-65.641 128.393-65.641 224.098 0 131.964 40.172 235.387 120.517 310.27 80.345 74.831 177.598 113.979 291.789 117.393zM993.020 815.593v-123.037c-60.838 0-119.808-20.349-176.917-61.020-57.079-40.697-85.649-90.427-85.649-149.239 0-34.189 13.679-51.281 41.041-51.281 6.144 0 18.458 2.389 36.915 7.168 19.166 4.122 34.526 6.17 46.161 6.17 39.646 0 75.537-15.753 107.674-47.181 32.141-31.458 48.209-72.836 48.209-124.113 0-51.964-17.067-96.572-51.281-133.833-34.185-37.282-81.024-55.923-140.497-55.923-71.13 0-128.55 26.859-172.318 80.529-43.746 53.666-65.643 128.393-65.643 224.098 0 131.964 40.171 235.387 120.516 310.27 80.346 74.831 177.6 113.979 291.789 117.393z" />
<glyph unicode="&#xe90a;" glyph-name="rotate" d="M512 746.667c-164.949 0-298.667-133.718-298.667-298.667 0-12.681 0.788-25.156 2.313-37.389 2.916-23.381-13.676-44.702-37.059-47.616-23.383-2.918-44.702 13.675-47.618 37.060-1.961 15.723-2.969 31.727-2.969 47.945 0 212.077 171.923 384 384 384 82.662 0 159.232-26.142 221.875-70.557v27.891c0 23.564 19.102 42.667 42.667 42.667s42.667-19.103 42.667-42.667v-127.997c0-23.564-19.102-42.666-42.667-42.667l-128-0.003c-23.565 0-42.667 19.101-42.667 42.666s19.102 42.667 42.667 42.668h17.399c-44.966 27.1-97.63 42.666-153.941 42.666zM845.414 533.005c23.381 2.916 44.702-13.675 47.616-37.060 1.963-15.723 2.97-31.727 2.97-47.945 0-212.079-171.921-384-384-384-78.933 0-152.326 23.842-213.333 64.674v-22.007c0-23.565-19.103-42.667-42.667-42.667s-42.667 19.102-42.667 42.667v128c0 23.565 19.103 42.667 42.667 42.667h128c23.564 0 42.667-19.102 42.667-42.667s-19.103-42.667-42.667-42.667h-25.94c44.961-27.102 97.62-42.667 153.94-42.667 164.949 0 298.667 133.717 298.667 298.667 0 12.681-0.789 25.156-2.313 37.389-2.914 23.381 13.675 44.702 37.060 47.616z" />
<glyph unicode="&#xe90b;" glyph-name="switch-horizontal" d="M737.83 819.503c16.661 16.662 43.678 16.662 60.339 0l128-128c16.661-16.663 16.661-43.677 0-60.34l-128-128c-16.661-16.661-43.678-16.661-60.339 0s-16.661 43.677 0 60.34l55.164 55.163h-494.327c-23.564 0-42.667 19.103-42.667 42.667s19.103 42.667 42.667 42.667h494.327l-55.164 55.163c-16.661 16.663-16.661 43.677 0 60.34zM286.17 392.836c16.662-16.661 16.662-43.678 0-60.339l-55.164-55.164h494.327c23.565 0 42.667-19.102 42.667-42.667s-19.102-42.667-42.667-42.667h-494.327l55.164-55.164c16.662-16.661 16.662-43.678 0-60.339s-43.677-16.661-60.34 0l-128 128c-16.662 16.661-16.662 43.678 0 60.339l128 128c16.663 16.661 43.677 16.661 60.34 0z" />
<glyph unicode="&#xe90c;" glyph-name="telegram" d="M259.197 457.335c137.439 59.878 229.084 99.355 274.942 118.429 130.927 54.457 158.131 63.917 175.863 64.233 3.904 0.065 12.621-0.901 18.27-5.485 4.77-3.87 6.084-9.098 6.711-12.768s1.408-12.028 0.789-18.56c-7.095-74.549-37.798-255.456-53.414-338.95-6.609-35.332-19.622-47.177-32.222-48.337-27.375-2.517-48.166 18.095-74.684 35.477-41.493 27.2-64.934 44.13-105.212 70.673-46.548 30.673-16.375 47.535 10.155 75.085 6.942 7.211 127.569 116.932 129.903 126.886 0.294 1.246 0.563 5.884-2.193 8.333-2.756 2.452-6.822 1.615-9.758 0.947-4.164-0.943-70.451-44.757-198.864-131.439-18.816-12.919-35.858-19.217-51.127-18.884-16.833 0.363-49.214 9.515-73.286 17.34-29.525 9.6-52.991 14.673-50.947 30.972 1.064 8.491 12.755 17.173 35.073 26.048z" />
<glyph unicode="&#xe90d;" glyph-name="twitter" d="M768 608c-19.2-9.6-38.4-12.8-60.8-16 22.4 12.8 38.4 32 44.8 57.6-19.2-12.8-41.6-19.2-67.2-25.6-19.2 19.2-48 32-76.8 32-67.2 0-118.4-64-102.4-128-86.4 3.2-163.2 44.8-217.6 108.8-28.8-48-12.8-108.8 32-140.8-16 0-32 6.4-48 12.8 0-48 35.2-92.8 83.2-105.6-16-3.2-32-6.4-48-3.2 12.8-41.6 51.2-73.6 99.2-73.6-38.4-28.8-96-44.8-150.4-38.4 48-28.8 102.4-48 160-48 195.2 0 304 163.2 297.6 313.6 22.4 12.8 41.6 32 54.4 54.4z" />
<glyph unicode="&#xe90e;" glyph-name="youtube" d="M755.2 572.8c-6.4 22.4-22.4 38.4-44.8 44.8-38.4 9.6-201.6 9.6-201.6 9.6s-160 0-201.6-9.6c-22.4-6.4-38.4-22.4-44.8-44.8-6.4-41.6-6.4-124.8-6.4-124.8s0-83.2 9.6-124.8c6.4-22.4 22.4-38.4 44.8-44.8 38.4-9.6 201.6-9.6 201.6-9.6s160 0 201.6 9.6c22.4 6.4 38.4 22.4 44.8 44.8 9.6 41.6 9.6 124.8 9.6 124.8s0 83.2-12.8 124.8zM460.8 371.2v153.6l134.4-76.8-134.4-76.8z" />
<glyph unicode="&#xe90f;" glyph-name="close" d="M798.17 734.17c16.661-16.663 16.661-43.677 0-60.34l-512-512c-16.663-16.661-43.677-16.661-60.34 0s-16.662 43.678 0 60.339l512 512c16.661 16.662 43.678 16.662 60.339 0zM225.83 734.17c16.663 16.662 43.677 16.662 60.34 0l512-512c16.661-16.661 16.661-43.678 0-60.339s-43.678-16.661-60.339 0l-512 512c-16.662 16.663-16.662 43.677 0 60.34z" />
<glyph unicode="&#xe910;" glyph-name="burger" d="M128 704c0 23.564 19.103 42.667 42.667 42.667h682.667c23.565 0 42.667-19.103 42.667-42.667s-19.102-42.667-42.667-42.667h-682.667c-23.564 0-42.667 19.103-42.667 42.667zM128 448c0 23.565 19.103 42.667 42.667 42.667h426.667c23.565 0 42.667-19.102 42.667-42.667s-19.102-42.667-42.667-42.667h-426.667c-23.564 0-42.667 19.102-42.667 42.667zM128 192c0 23.565 19.103 42.667 42.667 42.667h213.333c23.564 0 42.667-19.102 42.667-42.667s-19.103-42.667-42.667-42.667h-213.333c-23.564 0-42.667 19.102-42.667 42.667z" />
<glyph unicode="&#xe911;" glyph-name="minus" d="M219.429 448c0 20.198 16.374 36.571 36.571 36.571h512c20.198 0 36.571-16.373 36.571-36.571s-16.373-36.571-36.571-36.571h-512c-20.198 0-36.571 16.373-36.571 36.571z" />
<glyph unicode="&#xe912;" glyph-name="plus-1" d="M512 740.571c20.198 0 36.571-16.374 36.571-36.571v-219.429h219.429c20.198 0 36.571-16.373 36.571-36.571s-16.373-36.571-36.571-36.571h-219.429v-219.429c0-20.198-16.373-36.571-36.571-36.571s-36.571 16.373-36.571 36.571v219.429h-219.429c-20.198 0-36.571 16.373-36.571 36.571s16.374 36.571 36.571 36.571h219.429v219.429c0 20.198 16.373 36.571 36.571 36.571z" />
</font>
</defs>
</svg>
